Skip to main content

Monks of Doom Live at Pappy & Harriet's Pioneertown Palace on 2009-09-12




01. intro
02. Hieroglyphic
03. Vaporize Your Crystals
04. Going South
05. Light In The Sky
06. The 15th
07. Jim Gore And The Ghost Of Missouri
08. band intros
09. Cherry Blossom Baptism
10. Trapped
11. Let's Split - Ukrainian Technological Faith Dance


Collection MonksofDoom
Band/Artist Monks of Doom
Venue Pappy & Harriet's Pioneertown Palace
Location Pioneertown, CA

Source AKG C522MS ("The Pickle Mic") > Grace Lunatec V3 (mic preamp & A>D converter) + Soundcraft 800B SBD > Edirol R44 > WAVs @48kHz/24bit
Lineage WAVs > Audacity 1.2.6a (delay SBD feed approx 28.6ms, matrix mid/side, adjust gains as follows: SBD -3dB, Side channel -3dB, convert sample rate to 44.1kHz/16bit) > xACT 1.64 > FLAC level 8
Taped by morst, with gear provided by Jason "Picklemic" Loomis of Team Pickle - THANKS!
Transferred by morst

Notes

Saturday, September 12, 2009
Outdoor Stage

FoH: Casey Martin

SHNTOOL:
length expanded size cdr WAVE problems fmt ratio filename
1:12.33 12778460 B --- -- ---xx MonksOfDoom2009-09-12-MTX-01.flac
3:18.68 35087180 B --- -- ---xx MonksOfDoom2009-09-12-MTX-02.flac
3:24.00 35985644 B --- -- ---xx MonksOfDoom2009-09-12-MTX-03.flac
7:33.62 80055068 B --- -- ---xx MonksOfDoom2009-09-12-MTX-04.flac
4:36.62 48832268 B --- -- ---xx MonksOfDoom2009-09-12-MTX-05.flac
3:23.48 35922140 B --- -- ---xx MonksOfDoom2009-09-12-MTX-06.flac
4:04.55 43171004 B --- -- ---xx MonksOfDoom2009-09-12-MTX-07.flac
1:08.06 12009356 B --- -- ---xx MonksOfDoom2009-09-12-MTX-08.flac
7:04.42 74892428 B --- -- ---xx MonksOfDoom2009-09-12-MTX-09.flac
3:18.07 34943708 B --- -- ---xx MonksOfDoom2009-09-12-MTX-10.flac
5:58.63 63299420 B --- -- ---xx MonksOfDoom2009-09-12-MTX-11.flac
45:03.71 476976676 B 0.5318 (11 files)

~=~=~=~=~=~=~=~=~=~=~=~=~=~=~=~=~=~=~=~=~=~=~=~=~
Soundscape Preservation Society Founded 1991
http://www.iamtypingwithonefinger.com/SPS.html
~=~=~=~=~=~=~=~=~=~=~=~=~=~=~=~=~=~=~=~=~=~=~=~=~

Reviews

There are no reviews yet. Be the first one to write a review.
PEOPLE ALSO FOUND
Monks of Doom
by Monks of Doom
149
1
0
Source: DPA 4061 mics > Sony PCM-D50 > WAV @48/24
Monks of Doom
by Monks of Doom
2,813
1
1
( 1 reviews )
Source: ECM 929> D6> M EQ 230 > SV-3700 > HHB 830 30'Stage Center
Monks of Doom
by Monks of Doom
1,276
1
0
Source: AKG C522MS ("The Pickle Mic") > Grace Lunatec V3 (mic preamp & A>D converter) + Soundcraft 800B SBD > Edirol R44 > WAVs @48kHz/24bit
Monks of Doom
by Monks of Doom
2,828
1
2
( 2 reviews )
Source: SBD?
Monks of Doom
by Monks of Doom
1,372
1
0
Source: SBD?
Monks of Doom
by Monks of Doom
784
1
3
( 3 reviews )
Source: Neumann KM-140 > Beyer MV100 > Sony SBM-1 > Sony D8
Monks of Doom
by Monks of Doom
557
1
0
Source: DPA 4061 mics > Sony PCM-D50 > WAV @48/24
Monks of Doom
by Monks of Doom
737
1
1
( 1 reviews )
Source: DPA 4061 mics > Sony PCM-D50 > WAV @48/24
Monks of Doom
by Monks of Doom
22,153
1
3
( 3 reviews )
Source: Realistic 33-1063 omni mic > Marantz PMD430 cassette deck w/ Dolby B NR
Monks of Doom
by Monks of Doom
4,890
2
2
( 2 reviews )
Source: AUD > MD